&title=Calamity Fortune [DX]
&wholebpm=200
&artist=LeaF
&des=シチミヘルツ
&shortid=10641
&genre=東方Project
&cabinet=DX
&version=maimai DX
&chartconverter=Neskol
&lv_2=4
&des_2=-
&lv_3=8
&des_3=-
&lv_4=11
&des_4=某S氏
&lv_5=13+
&des_5=シチミヘルツ
&des_6=
&inote_2=
(200){1},
{1},
{1}1,
{1}1h[2:1],
{1}8,
{1}8x,
{1}1,
{1}2,
{1}3,
{1}4x/5x,
{2}5,5,
{1}5,
{2}6,6,
{1}6,
{2}7,7,
{1}7,
{2}8,8,
{1}8x,
{1}1-5[4:3],
{1},
{1}8-4[4:3],
{1},
{1}1x/8x,
{2}8,8,
{4}7,7,7,,
{2}6,6,
{4}5,5,5,,
{2}4,4,
{4}3,3,3,,
{1}2h[2:1],
{4}1,1,1b,,
{2}8,8,
{1}7/8,
{2}1,1,
{1}1/2,
{2}8,8,
{2}7,7,
{2}6,6,
{1}4/5,
{1}B4,
{1}B3,
{1}B2,
{1}B1,
{1}B8,
{1}B7,
{1}B6,
{1}B4/B5,
{1},
{1}4h[2:1],
{1}3h[2:1],
{1}2h[2:1],
{2}1,1,
{1}8h[2:1],
{1}7h[2:1],
{1}6h[2:1],
{2}5,5,
{2}4,4,
{2}3,3,
{2}2,2,
{4}1,1,1,,
{2}8,8,
{2}7,7,
{2}6,6,
{4}5x,4x,5x,,
{1}4h[2:1],
{4}4,4,4,,
{1}5h[2:1],
{4}5,5,5,,
{1}4-1[4:3],
{1},
{1}5-8[4:3],
{1},
{1}4h[2:1]/5h[2:1],
{4}4,5,4,,
{1}B5,
{1}B6,
{1}B7,
{1}B8,
{1}B1,
{1}B2,
{1}B3,
{1}B4/B5,
{1}C1hf[1:2],
{1},
{1},
{4}1,1,1,,
{4}2,2,2,,
{4}3,3,3,,
{4}4,4,4/5,,
{4}5,5,5,,
{4}6,6,6,,
{4}7,7,7,,
{4}8,8,1b/8b,,
{4}7,7,7,,
{4}6,6,6,,
{4}5,5,5,,
{4}4,5,4,,
{4}3,3,3,,
{4}2,2,2,,
{4}1,1,1,,
{4}8,1,8b,,
{1}1-5[4:3],
{1},
{1}6,
{1}7,
{1}8-4[4:3],
{1},
{1}3,
{1}2,
{1}1h[1:3]/8h[1:3],
{1},
{1},
{1},
{1},
{1},
E
&inote_3=
(200){1},
{1},
{4}6,6,5,5,
{1}3h[2:1]/4h[2:1],
{4}3,3,4,4,
{4}5,6,5x/7x,,
{4}6,6,5/6,5/6,
{4}4,3,3/4,3/4,
{4}2,2,1,1,
{4}1x/8x,1x/8x,2b/7b,,
{4}6,7,8,1x/2x,
{4}3,2,1,7x/8x,
{4}6,7,8,1x/2x,
{4}8,1/8,2x/7x,,
{4}2,3,4,5x/6x,
{4}7,6,5,3x/4x,
{4}3,4,5,6,
{4}7,1x/8x,2b/7b,,
{1}6h[1:1],
{1}5h[1:1],
{1}4h[1:1],
{2}3x,3x,
{4}4x/5x,3x/6x,2b/7b,,
{4}1,2,3,4x/5x,
{4}6,7,8,1x/2x,
{4}3,4,5,6,
{4}7x/8x,1x/6x,2b/5b,,
{4}8,7,6,4x/5x,
{4}3,2,1x,1x,
{2}7xh[4:1]/8xh[4:1],1xh[4:1]/2xh[4:1],
{4}1x/8x,2x/7x,3b/6b,,
{2}E5,E4,
{1}C1xh[2:1],
{2}E1,E8,
{1}C1xh[2:1],
{4}E8,B8,B1,,
{4}E3,B3,B4,,
{4}E6,B6,B7,,
{1}C1f,
{1}2pp6[2:3],
{1},
{1}7qq3[2:3],
{1},
{1}2-4[2:1],
{1}5-7[2:1],
{1}1pp4[4:5]/8qq5[4:5],
{1},
{1}2x/7x,
{8}1,1,1,,8,,8,,
{8}7,7,7,,6,,6,,
{8}5,5,5,,4,,4,,
{4}3/4,3/4,2x/5x,,
{8}8,8,8,,1,,1,,
{8}2,2,2,,3,,3,,
{8}4,4,4,,5,,5,,
{4}5/6,5/6,4x/7x,,
{8}1,1,1,,8,,7,,
{8}6,6,6,,5,,4,,
{8}3,3,3,,2,,1,,
{8}7/8,7/8,7/8,,1x/6x,,,,
{8}1,1,1,,2,,3,,
{8}4,4,4,,5,,6,,
{8}7,7,7,,1x/8x,1x/8x,1x/8x,1x-4[2:1]/8x-5[2:1],
{1},
{1}6h[1:1],
{4}5,5,5,,
{1}4h[4:3]/5h[4:3],
{4}4x/5x,3x/6x,2b/7b,,
{2}3h[2:1],4h[2:1],
{2}5h[2:1],6x,
{2}7h[2:1],8h[2:1],
{2}1h[2:1],2x,
{1}1-4[2:1]/8-5[2:1],
{4}3x/6x,2x/7x,1b/8b,,
{1}7qq3[2:3],
{1},
{1}2pp6[2:3],
{1},
{1}7-5[2:1],
{1}4-2[2:1],
{1}1pp4[4:5]/8qq5[4:5],
{1},
{1}2x/7x,
{4}4/5,4/5,3/6,3/6,
{4}2x/7x,1x/8x,2b/7b,,
{4}8,7,5/6,4/5,
{4}3,2,1/8,7/8,
{4}1,2,3/4,4/5,
{4}5/6,4/7,3b/8b,,
{4}1,2,3/4,4/5,
{4}6,7,1/8,1/2,
{4}8,7,5/6,4/5,
{4}3/4,2/5,1b/6b,,
{4}1,2,3/4,5/6,
{4}7,8,1/2,3/4,
{4}5,6,7/8,1/2,
{4}3/4,2/5,1b/6b,,
{4}8,7,5/6,3/4,
{4}2,1,7/8,5/6,
{4}4,3,1/2,7/8,
{4}5/6,4/7,3b/8b,,
{1}1>6[4:5],
{1},
{1}8<3[4:5],
{1},
{1}1>4[1:1]/8<5[1:1],
{1},
{2}E5,B4/B5,
{2}B3/B6,B2/B7,
{1}C1xh[1:3],
{1},
{1},
{1},
{1},
{1},
E
&inote_4=
(200){1},
{1},
{4}3,2/4,3,2/4,
{4}3<6[4:1],,,8b,
{4}6,5/7,6,5/7,
{4}B6,C1,B1/B2,,
{4}3,2/4,3,2/4,
{4}6,5/7,6,5/7,
{4}B4,B5,E2/E3,E7/E8,
{8}1,8,1,,2b/7b,,,,
{16}1h[16:3],,,7h[16:3],,,8,,6,,5,,6,,,,
{16}8h[16:3],,,2h[16:3],,,1,,3,,4,,3,,,,
{16}3h[16:3],,,7h[16:3],,,1,,8,,1,,8,,,,
{4}B6/B7,B2/B3,C1/B1/B8,,
{16}4h[16:3],,,6h[16:3],,,5,,7,,8,,7,,,,
{16}5h[16:3],,,3h[16:3],,,4,,2,,1,,2,,,,
{16}2h[16:3],,,6h[16:3],,,4,,5,,4,,5,,,,
{8}2,7,1-5[8:1],8,,,,,
{2}7h[2:1],6h[2:1],
{2}5h[2:1],4,
{2}3h[2:1],5h[2:1],
{4}6h[2:1],,7,8b,
{1}C1hf[2:1]/B3/B6,
{8}8-4[8:1],,1,,3,3,5,,
{8}6,5,6,,5/6,,4/7,,
{8}1-5[8:1],,8,,6,6,4,,
{8}3,4,3,,2h[4:1]/5h[4:1],,,,
{8}5-1[8:1],,4,,2,2,8,,
{8}7,8,7,,7/8,,2/6,,
{4}4h[4:1]/5h[4:1],,4/5,4/5,
{8}1,8,1,,2b/7b,,,,
{4}B4,B5,B1/B2,B7/B8,
{4}5/6,3/4,7/8,1b,
{4}B8,B1,B5/B6,B3/B4,
{4}1/2,7/8,5h[4:1]/6h[4:1],,
{4}B4/E5,B6/E7,B2/E3,E1/B8,
{4}B1/E2,B6/E7,B3/E4,B5/E5,
{1}C1xh[2:3],
{1},
{1}8z4[2:1],
{1}1s5[2:1],
{1}8<1[4:5],
{1},
{16}3xh[4:1]/4xh[4:1],,,,,,,,3x/5x,,,4x/6x,,,5x/7x,,
{16}5xh[4:1]/7xh[4:1],,,,,,,,4x/7x,,,3x/6x,,,2x/5x,,
{2}2xh[4:1]/5xh[4:1],4xh[4:1]/7xh[4:1],
{8}1/8,,4,5,4,,2b/7b,,
{1}C1xh[2:1],
{4}1-5[8:1],8-6[8:1],2-4[8:1],,
{4}8-4[8:1],1-3[8:1],7-5[8:1],,
{4}4-2[8:1],6-8[8:1],5-1[8:1],,
{1}3qq8[2:1]/4pp7[2:1],
{4}2-6[8:1],1-7[8:1],3-5[8:1],,
{4}7-3[8:1],8-2[8:1],6-4[8:1],,
{4}3-1[8:1],5-7[8:1],4-8[8:1],,
{1}5qq2[2:1]/6pp1[2:1],
{4}B8,B2,B5/B6,E3/E4,
{4}B1,B7,B3/B4,E6/E7,
{4}B8,B2,B5/B6,E3/E4,
{1}C1xh[2:1],
{4}B5,B3,B7/B8,E2/E3,
{4}B4,B6,B1/B2,E7/E8,
{4}B5,B3,B7/B8,E2/E3,
{1}C1f,
{4}3h[4:3]/5,5,4,4,
{4}3/5,4/6,5/7,8b,
{4}4/6h[4:3],4,5,5,
{8}4/6,,3/5,,2/4,1x,1x,,
{4}1x>4[8:1],5,5x<8[8:1],1,
{4}1x>4[8:1],5,5x<8[8:1],1,
{4}1x>4[8:1],5x<8[8:1],1x>4[8:1],5x<8[8:1],
{4}1x>4[8:1],5x<8[8:1],1x,5x,
{8}3,4,3/5,,6,5,4/6,,
{4}4/5,3/6,2/7,1/8,
{1}1h[2:1]/8h[2:3],
{1}2h[4:5],
{2}3h[4:3],4h[1:1],
{4}5h[2:1],,,1b,
{1}2h[2:1]/4h[2:1],
{1}5h[2:1]/7h[2:1],
{4}1h[4:1],3,8h[4:1],6,
{8}1/8,,4,5,4,,2b/7b,,
{1}C1hf[2:5],
{4}8x,8x,7x,7x,
{4}8x,8x,8b,,
{16}7h[16:3],,,8,,,7,,6-1[8:1],,6,,4,,4,,
{16}2h[16:3],,,1,,,2,,3-8[8:1],,3,,5,,5,,
{16}7h[16:3],,,8,,,7,,6-1[8:1],,6,,4,,4,,
{8}2,2,8,8,4,4,5/6,,
{16}6h[16:3],,,5,,,6,,7-4[8:1],,7,,1,,1,,
{16}3h[16:3],,,4,,,3,,2-5[8:1],,2,,8,,8,,
{16}6h[16:3],,,5,,,6,,7-4[8:1],,7,,1,,1,,
{8}2,2,6,6,4,5,2b/7b,,
{16}3h[16:3],,,4,,,3,,2V48[16:3],,2,,5,,5,,
{16}6h[16:3],,,5,,,6,,7V51[16:3],,7,,4,,4,,
{16}3h[16:3],,,4,,,3,,2V48[16:3],,2,,5,,5,,
{8}6,6,2,2,8,8,1/2,,
{16}2h[16:3],,,1,,,2,,3V15[16:3],,3,,6,,6,,
{16}7h[16:3],,,8,,,7,,6V84[16:3],,6,,2,,2,,
{16}2h[16:3],,,1,,,2,,3V15[16:3],,3,,7,,7,,
{8}8,8,3,3,5,4,2b/7b,,
{1}B6,
{1}B2,
{1}B8,
{2}E1,C1,
{2}B5/B6,B1,
{2}B3/B4,B8,
{2}C1/B4/B5,E1,
{4}E2/E8,E3/E7,E4/E6,E5,
{1}C1xh[1:3]/B2/B7,
{1},
{1},
{1},
{1},
{1},
E
&inote_5=
(200){1},
{1},
{8}4,5,3,6,4,5,4,5,
{8}E4,E6,E2,E8,C1,,8x,,
{8}6,5,7,4,6,5,6,5,
{8}E7,E5,E1,E3,C1,,1x,,
{8}3,4,2,5,3,4,3,4,
{4}3h[4:1],4h[4:1],5h[4:1],6,
{4}B6/B7/E8,B2/B3/E4,B1/E2/B8/E8,E4/B4/B5/E6,
{8}E1,C1,E5,,C1f/E3/E7,,,,
{8}2/8,3,4/5,3,2-5[8:1]/4,,8x,,
{8}1/7,6,4/5,6,5/7-4[8:1],,1x,,
{8}2/8,3,4/5,6,7/8,1,2/8,3,
{4}2x-5[8:1]/4x,7>3[4:1],4h[4:1],,
{8}1/7,6,4/5,6,5/7-4[8:1],,1x,,
{8}2/8,3,4/5,3,2-5[8:1]/4,,8x,,
{8}1/7,6,4/5,3,2/8-3[8:1]*-5[8:1],,8x,,
{8}2-5[8:1],7-4[8:1],2x,7x,1x,2b/7b,,,
{8}3h[8:3],,4,5h[8:3],,4,3h[8:3],,
{8}4,5h[8:3],,4,3h[4:1],,C1,,
{8}6h[8:3],,5,4h[8:3],,5,6h[8:3],,
{8}5,4h[8:3],,5,6h[4:1],,C1,,
{4}1>5[4:1],5<1[4:1],1,C1f,
{8}2/8,3,4/5,3,2-5[8:1]*-8[8:1]/4,,2x,,
{8}1/7,6,4/5,6,5/7-1[8:1]*-4[8:1],,7x,,
{8}2/8,3,4/5,6,1/7,2,1/3,4/8,
{4}5x/7x-3[8:1],2x<6[4:1]/7x,2x/5h[4:1],,
{8}1/7,6,4/5,3,2/8w4[8:1],,8x,,
{16}1/7,,2/6,,3,4,3,4,3,,2/5,,1/8,,2/7,,
{16}1h[16:3],,,8,1,,1/8,,2-5[8:1]/7-4[8:1],,,,2x/7x,,,,
{8}E1,C1,E5,,C1f/E3/E7,,,,
{8}E2,E8,E3,E7,B5/B6/E6,,C1/E4/E8,,
{16}3/8,,2,1,2,,3/8,,3/8h[4:1],,,,1b,,,,
{8}E8,E2,E7,E3,B3/B4/E4,,C1/E2/E6,,
{16}7x,8x,,8x,7x,,1/6,,1/6,,8x,7x,6x,5x,4x,3x,
{4}2xh[8:1]/5xh[8:1],2xh[8:1]/4xh[8:1],2h[8:1]/3h[8:1],1/2,
{4}1h[8:1]/2h[8:1],3h[8:1]/8h[8:1],4h[8:1]/7h[8:1],5h[8:1]/6h[8:1],
{8}7,7,5,5,4,4,2,2,
{16}1/8,,1/8,,2x/7x,,6,5,,4x/7x,,3,4,,2x/5x,,
{1}1>6[8:5],
{1}8<3[8:5],
{4}1pp5[8:7],8,8,7,
{1}7h[4:3],
{16}4x/8x<3[8:5],,,,,,,,3,,,2,,,1,,
{16}1x>6[8:5],,,,,,,,6,,,7,,,8,,
{4}8xqq4[8:7],1,1,2,
{8}2,,2,3,4xw8[8:1],,,,
{1},
{16}4/5,,3,,2,,1,,7,8,7,,6,,5,,
{16}4/5,,6,,7,,8,,2,1,2,,3,,4,,
{16}4/5,,3,,2,,1,,7,8,7,,6,,5,,
{16}3,4,3,,2,1,2,,1/2,,3/8,,4/7,,6,,
{16}4/5,,6,,7,,8,,2,1,2,,3,,4,,
{16}4/5,,3,,2,,1,,7,8,7,,6,,5,,
{16}4/5,,6,,7,,8,,2,1,2,,3,,4,,
{16}6,5,6,,7,8,7,,7/8,,1/6,,2/5,,3,,
{16}5h[8:1],,6h[8:1],,7h[8:1],,8,,6,5,7,,3,4,2,,
{16}8h[8:1],,1h[8:1],,2h[8:1],,3,,6,5,7,,3,4,2,,
{16}5h[8:1],,6h[8:1],,7h[8:1],,8,,6,5,7,,3,4,2,,
{16}7,8,7,8,7,8,7h[8:1],,8,,1/7,,2/6,,3/5,,
{16}2h[8:1],,4h[8:1],,5h[8:1],,7,,2,1,3,,7,8,6,,
{16}3h[8:1],,1h[8:1],,8h[8:1],,6,,2,1,3,,7,8,6,,
{16}2h[8:1],,4h[8:1],,5h[8:1],,7,,2,1,3,,1x/8x,,2b/7b,,
{8},1/5,,5x/6x,4x/7x,3x/8x,1b/2b,,
{1}4h[4:3]/5h[4:3],
{4}E6/E7,E3/E4,C1/E5,1b,
{8}6,5,4,3,3/6,3h[4:1]/6h[4:1],,,
{8}E3/E4,,E6/E7,,C1/E5,8b,8b,,
{8}B2,B7,B4,B5,B1,B8,E3/B3,B6,
{8}E2,E7,E4,E5,E1,E8,B3/E3,E6,
{8}B2,B7,B4/E4,B5,B1,B8,B3/E4,B6,
{8}B2/E3,E8,B4/E5,E6,B1/E2,B7,B3/E4,B6,
{16}C1xh[4:1],,,,,,,,1,8,1,8,2x/7x,,,,
{16}5/6,,5/6,,4x/7x,,2,1,,3x/8x,,7,8,,1x/6x,,
{1}8<3[8:5],
{1}1>6[8:5],
{4}8qq4[8:7],1,1,2,
{4}2h[4:3],,,8b,
{16}1x>6[8:5]/5x,,,,,,,,6,,,7,,,8,,
{16}8x<3[8:5],,,,,,,,3,,,2,,,1,,
{4}1xpp5[8:7],8,8,7,
{8}7,,7,6,4x-1[8:1]/5x-8[8:1],,,,
{16}2b/7b,,,,4,5,4,5,3,6,3,6,3b,,,,
{4}C1f/B3/B4,B1/C1f/B2,C1f/B7/B8,C1f/B5/B6,
{32}1x,2x,3x,4x,5x,6x,7x,8x,1x,2x,3x,4x,5x,6x,7x,8x,1xw5[8:1],,,,,,,,1b,,,,,,,,
{16}2h[8:1]/8h[8:1],,,3h[8:1]/4h[8:1],,,1/7,,8-4[8:1],,3-6[8:1],,8,,3,,
{16}1h[8:1],,,5xh[8:1]/7xh[8:1],,,2/8,,1-5[8:1],,6-3[8:1],,1,,6,,
{16}8h[8:1],,,2xh[8:1]/4xh[8:1],,,1/7,,8-4[8:1],,3-6[8:1],,8,,3,,
{4}1<6[8:1],1>4[8:1]/5,1/5w1[8:1],5x,
{16}3h[8:1]/7h[8:1],,,5h[8:1]/6h[8:1],,,2/8,,1-5[8:1],,6>3[8:1],,1,,6,,
{16}8h[8:1],,,2xh[8:1]/4xh[8:1],,,1/7,,8-4[8:1],,3<6[8:1],,8,,3,,
{16}1h[8:1],,,5xh[8:1]/7xh[8:1],,,2/8,,1-5[8:1],,6>3[8:1],,1,,6,,
{16}8,,8,,1x/7x,,2,1,,3x/8x,,5,4,,3b/6b,,
{16}1h[8:1]/7h[8:1],,,5h[8:1]/6h[8:1],,,2/8,,7-4[8:1],,3-8[8:1],,7,,3,,
{16}5h[8:1],,,2h[8:1]/4h[8:1],,,1/7,,2-5[8:1],,6-1[8:1],,2,,6,,
{16}4h[8:1],,,5h[8:1]/7h[8:1],,,2/8,,7-4[8:1],,3-8[8:1],,7,,3,,
{4}5<8[8:1],1/5>2[8:1],1w5[8:1]/5,1x,
{16}2h[8:1]/6h[8:1],,,3h[8:1]/4h[8:1],,,1/7,,8-5[8:1],,3>8[8:1],,8,,3,,
{16}4h[8:1],,,3h[8:1]/5h[8:1],,,2/8,,1-4[8:1],,6<1[8:1],,1,,6,,
{16}5h[8:1],,,4h[8:1]/6h[8:1],,,1/7,,8-5[8:1],,3>8[8:1],,8,,3,,
{16}4,,4,,3x/5x,,7,8,,1x/6x,,2,1,,3b/8b,,
{1}1>5[2:1]/8,
{1}5/8>5[2:1],
{1}1>5[2:1]/5,
{4}5/8<3[8:5],4,3,2,
{1}1<4[2:1],
{1}4>5[2:1]/8,
{16}8,7,6,5,1,2,3,4,7,6,5,4,2,1,2,1,
{32}2x,3x,4x,5x,,,,,8x,7x,6x,5x,,,,,2x,3x,4x,5x,6x,7x,8x,1x,2x,3x,4x,5x,6x,7x,8x,1x,
{1}C1xh[1:3]/2x,
{1},
{1},
{1},
{1},
{1},
E
